<?xml version="1.0" standalone="no"?>
<!DOCTYPE svg PUBLIC "-//W3C//DTD SVG 1.1//EN" "http://www.w3.org/Graphics/SVG/1.1/DTD/svg11.dtd" >
<!--
2013-9-15: Created.
-->
<svg xmlns="http://www.w3.org/2000/svg">
<metadata>
Created by FontForge 20120731 at Sun Sep 15 15:49:41 2013
 By Tyler Wanlass
Created by Tyler Wanlass with FontForge 2.0 (http://fontforge.sf.net)
</metadata>
<defs>
<font id="picto-foundry-sports" horiz-adv-x="512" >
  <font-face 
    font-family="picto-foundry-sports"
    font-weight="500"
    font-stretch="normal"
    units-per-em="512"
    panose-1="2 0 6 3 0 0 0 0 0 0"
    ascent="448"
    descent="-64"
    bbox="-0.75 -64 512.423 448.298"
    underline-thickness="25.6"
    underline-position="-51.2"
    unicode-range="U+F100-F136"
  />
    <missing-glyph />
    <glyph glyph-name="uniF100" unicode="&#xf100;" 
d="M512 382v0h-53l-11 -11h35v-17h-53l-11 -12c40 -43 65 -100 65 -164c0 -134 -108 -242 -242 -242s-242 108 -242 242s108 242 242 242c64 0 121 -25 164 -65l11 11v53h18v-35l11 10v54h18v-36l13 14l13 -13l-13 -13h35v-18zM466 178c0 59 -23 112 -60 152l-65 -65
c20 -23 33 -54 33 -87c0 -73 -59 -132 -132 -132s-132 59 -132 132s59 132 132 132c33 0 64 -13 87 -33l65 65c-40 37 -93 60 -152 60c-123 0 -224 -101 -224 -224s101 -224 224 -224s224 101 224 224zM248 171l-13 13l15 15c-3 1 -5 1 -8 1c-12 0 -22 -10 -22 -22
s10 -22 22 -22s22 10 22 22c0 3 0 5 -1 8zM263 212l53 53c-20 17 -46 27 -74 27c-63 0 -115 -51 -115 -114s52 -115 115 -115s114 52 114 115c0 28 -10 54 -27 74l-53 -53c4 -6 6 -13 6 -21c0 -22 -18 -40 -40 -40s-40 18 -40 40s18 40 40 40c8 0 15 -2 21 -6z" />
    <glyph glyph-name="uniF101" unicode="&#xf101;" 
d="M474 410c28 -28 41 -66 38 -108c-3 -41 -23 -82 -54 -113c-34 -34 -80 -54 -125 -54c-34 0 -65 10 -89 31l-89 -89c10 -16 8 -38 -6 -52l-77 -77c-8 -8 -19 -12 -30 -12s-22 4 -30 12c-17 17 -17 43 0 60l77 77c8 8 19 12 30 12c8 0 15 -2 22 -6l89 89
c-49 57 -40 151 23 214c34 34 80 54 125 54c37 0 71 -13 96 -38zM135 38c9 9 9 24 0 33c-4 4 -10 7 -16 7s-13 -3 -17 -7l-76 -76c-9 -9 -9 -24 0 -33c4 -4 10 -7 16 -7s13 3 17 7zM460 396c-4 4 -8 7 -12 10l-30 -30l26 -26l30 30c-4 6 -9 11 -14 16zM303 288l-26 26
l-34 -34l26 -26zM290 327l26 -26l31 31l-26 26zM316 274l-34 -34l26 -26l34 34zM330 288l26 -26l31 31l-26 26zM374 332l26 -26l30 30l-26 26zM400 279l-31 -31l26 -25l31 30zM414 293l25 -26l31 30l-26 26zM391 428l-13 -13l26 -26l28 28c-12 6 -27 9 -41 11zM391 376
l-26 26l-30 -30l26 -26zM342 424c-15 -4 -29 -10 -42 -18l21 -21l30 30zM266 380c-5 -5 -9 -10 -13 -15l24 -24l31 31l-24 24c-6 -5 -12 -10 -18 -16zM242 349c-10 -15 -16 -31 -20 -48l7 -8l34 34zM230 215l25 25l-26 26l-11 -11c1 -14 6 -27 12 -40zM250 186
c5 -5 11 -9 17 -13l28 28l-26 26l-29 -29c3 -4 6 -8 10 -12zM327 154l7 7l-26 26l-23 -24c13 -6 27 -8 42 -9zM322 201l26 -26l34 34l-26 26zM365 157c17 4 33 12 48 21l-18 18l-34 -35zM444 202c6 6 11 12 16 18l-21 20l-30 -31l20 -20c5 4 10 8 15 13zM471 236
c8 13 13 27 17 42l-5 5l-30 -30zM483 310l10 10c-1 15 -4 29 -10 42l-26 -26z" />
    <glyph glyph-name="uniF102" unicode="&#xf102;" horiz-adv-x="511" 
d="M346 360v-39h-176v39c0 48 40 88 88 88s88 -40 88 -88zM327 339v21c0 38 -31 69 -69 69s-70 -31 -70 -69v-21h139zM342 293l169 -357l-117 66l-71 -66l-69 66l-69 -66l-68 66l-117 -66l173 357h169zM391 25l12 -7l65 -37l-138 293h-145l-142 -292l65 36l12 7l11 -10
l54 -53l56 53l13 13l13 -13l56 -53l58 54zM248 70v166h19v-166h-19zM213 233l-59 -166l-18 6l59 166zM377 73l-18 -6l-58 166l17 6z" />
    <glyph glyph-name="uniF103" unicode="&#xf103;" 
d="M493 407c12 -12 19 -29 19 -47s-7 -34 -19 -46l-1 -1l-382 -316c-6 -7 -7 -16 -8 -26c-1 -12 -2 -34 -26 -34c-2 0 -4 1 -6 1h-3l-64 64l-1 3c-1 4 -5 16 2 25s19 10 30 10c10 0 21 0 27 6l90 109c-64 8 -113 62 -113 128c0 71 58 128 129 128c57 0 105 -37 122 -89
l89 107c12 12 28 19 46 19s35 -7 47 -19zM274 304c-4 19 -12 36 -24 50c-15 -10 -40 -33 -40 -71c0 -17 6 -31 13 -41zM57 283c0 -24 8 -48 22 -66c11 6 35 25 35 66c0 36 -20 59 -32 70c-16 -19 -25 -43 -25 -70zM91 203c19 -18 46 -30 75 -30l44 54c-11 14 -19 32 -19 56
c0 44 27 71 45 84c-19 16 -42 25 -69 25s-53 -10 -72 -26c15 -14 38 -40 38 -83c0 -46 -26 -70 -42 -80zM80 -28c1 7 2 16 5 25l-24 24c-9 -3 -19 -3 -27 -3c-4 0 -9 0 -12 -1v-4l54 -54c1 0 2 1 2 1c1 1 2 8 2 12zM98 15l89 74l-34 34l-74 -89zM478 329c8 8 12 19 12 31
s-5 23 -13 31l-22 22c-8 8 -19 13 -31 13s-23 -4 -31 -12l-226 -274l37 -37z" />
    <glyph glyph-name="uniF104" unicode="&#xf104;" 
d="M505 298c11 -11 8 -31 -6 -45c-8 -8 -18 -13 -27 -13c-7 0 -13 2 -18 7l-143 143c-11 11 -8 31 6 45c8 8 19 13 28 13c7 0 12 -2 17 -7l63 -62l28 28l14 -14l-28 -28zM486 267c7 7 7 16 5 18l-142 142c-1 1 -3 1 -4 1c-4 0 -9 -1 -14 -6c-4 -4 -6 -9 -7 -13
c0 -2 0 -4 1 -5l143 -143c1 -1 3 -1 4 -1c4 0 9 2 14 7zM375 326l14 -14l-253 -253l65 -65c11 -11 8 -31 -6 -45c-8 -8 -19 -13 -28 -13c-7 0 -12 2 -17 7l-65 65l-34 -34l-14 13l34 35l-64 64c-11 11 -8 31 6 45c8 8 18 13 27 13c7 0 13 -2 18 -7l64 -64zM187 -20l-143 143
c-1 1 -3 1 -4 1c-4 0 -9 -2 -14 -7c-4 -4 -5 -8 -6 -12c0 -2 0 -5 1 -6l142 -142c1 -1 3 -1 4 -1c4 0 9 1 14 6c7 7 8 16 6 18z" />
    <glyph glyph-name="uniF105" unicode="&#xf105;" 
d="M493 407c12 -12 19 -29 19 -47s-7 -34 -19 -46l-1 -1l-382 -316c-6 -7 -7 -16 -8 -26c-1 -12 -2 -34 -26 -34c-2 0 -4 1 -6 1h-3l-64 64l-1 3c-1 4 -5 16 2 25s19 10 30 10c10 0 21 0 27 6l317 383c12 12 28 19 46 19s35 -7 47 -19zM80 -28c1 7 2 16 5 25l-24 24
c-9 -3 -19 -3 -27 -3c-4 0 -9 0 -12 -1v-4l54 -54c1 0 2 1 2 1c1 1 2 8 2 12zM98 15l89 74l-34 34l-74 -89zM478 329c8 8 12 19 12 31s-5 23 -13 31l-22 22c-8 8 -19 13 -31 13s-23 -4 -31 -12l-226 -274l37 -37z" />
    <glyph glyph-name="uniF106" unicode="&#xf106;" 
d="M512 228l-198 -198c1 -4 2 -8 2 -12c0 -26 -20 -46 -46 -46h-28c-26 0 -46 20 -46 46c0 4 1 9 2 13l-198 198s21 219 256 219s256 -220 256 -220zM20 235l47 -47c10 6 32 23 37 43c6 24 -8 37 -9 38l-7 8l8 7l112 86l4 -12c0 -1 11 -27 44 -27c32 0 39 29 39 30l3 14
l129 -91l-10 -8s-13 -12 -9 -39c4 -28 44 -41 44 -41v-1l40 40c-6 39 -44 194 -236 194c-91 0 -158 -34 -200 -101c-24 -38 -33 -77 -36 -93zM270 -9c15 0 28 12 28 27s-13 28 -28 28h-28c-15 0 -28 -13 -28 -28s13 -27 28 -27h28zM270 65c15 0 27 -7 36 -17l133 133
c-14 6 -44 23 -49 53c-4 23 2 38 8 47l-89 63c-7 -15 -24 -32 -53 -32c-31 0 -47 17 -55 29l-86 -67c6 -9 12 -26 7 -48c-6 -25 -29 -42 -42 -51l127 -127c9 10 21 17 35 17h28zM256 257c35 0 63 -28 63 -63s-28 -63 -63 -63s-63 28 -63 63s28 63 63 63zM256 149
c24 0 44 21 44 45s-20 44 -44 44s-44 -20 -44 -44s20 -45 44 -45z" />
    <glyph glyph-name="uniF107" unicode="&#xf107;" horiz-adv-x="511" 
d="M211 448c189 0 300 -156 300 -156s-7 -356 -233 -356s-278 356 -278 356s22 156 211 156zM343 401l-14 -111c13 -10 24 -22 32 -36l43 113c-18 12 -38 24 -61 34zM297 193c0 -47 34 -64 35 -65l-1 -3c16 18 26 42 26 68c0 27 -10 51 -27 69c-9 -7 -33 -30 -33 -69z
M257 426c1 -15 3 -61 0 -111c20 0 39 -5 55 -14l13 107c-21 8 -44 14 -68 18zM316 274c-17 13 -38 21 -61 21s-44 -8 -61 -21c13 -11 37 -37 37 -81c0 -47 -28 -71 -40 -79c5 -4 11 -8 17 -11c15 4 31 6 50 6c17 0 33 -2 46 -5c5 3 10 6 15 10c-12 8 -40 31 -40 79
c0 44 24 70 37 81zM178 127l-1 1c1 1 35 18 35 65c0 39 -23 61 -32 68c-17 -18 -26 -42 -26 -68c0 -25 9 -48 24 -66zM133 198c2 59 47 108 105 116c0 6 1 11 1 17c-10 1 -46 3 -88 -20c-36 -20 -53 -45 -59 -58c12 -21 25 -40 41 -55zM239 349c0 12 1 24 1 35
c-17 2 -54 2 -97 -17c-50 -22 -70 -53 -75 -63c4 -10 9 -20 14 -31c10 16 29 37 60 54c45 25 83 24 97 22zM49 359c0 -1 -1 -1 -1 -2s4 -14 11 -32c12 16 35 42 77 60c45 20 83 20 103 18c0 10 -1 18 -1 25c-9 1 -18 1 -27 1c-72 0 -127 -23 -162 -70zM278 -45
c190 0 212 284 214 331c-3 4 -9 10 -16 18l-52 -121l-8 8l-6 6l52 122c-12 11 -26 24 -43 37l-47 -127c4 -11 5 -23 5 -36c0 -39 -18 -75 -47 -97c29 -11 43 -26 44 -27l-14 -13s-34 35 -102 35c-69 0 -107 -35 -107 -35l-13 14c1 1 16 14 44 25c-24 18 -42 46 -47 77
c-25 18 -46 47 -62 77l-2 1s1 1 1 2c-18 33 -31 66 -37 85c-11 -21 -15 -39 -16 -45c6 -33 62 -337 259 -337z" />
    <glyph glyph-name="uniF108" unicode="&#xf108;" 
d="M200 160c25 0 44 -20 44 -45s-19 -44 -44 -44s-45 19 -45 44s20 45 45 45zM200 90c14 0 25 11 25 25s-11 26 -25 26s-26 -12 -26 -26s12 -25 26 -25zM390 299l122 -24l-1 -15s-63 -8 -96 -16c-8 -2 -16 -3 -24 -6c5 -19 15 -76 -10 -121c-27 -49 -72 -62 -83 -65
c-23 -30 -61 -51 -108 -51c-69 0 -125 64 -130 119c-39 40 -60 53 -60 136c0 106 86 192 192 192c149 0 183 -61 198 -149zM364 127c21 38 13 86 9 104c-23 -8 -46 -17 -64 -27c13 -20 18 -52 12 -95c-2 -11 -4 -21 -8 -31c16 8 36 23 51 49zM398 257c33 8 81 11 81 11
s-105 13 -106 18c-9 75 -27 143 -181 143c-95 0 -173 -78 -173 -173c0 -69 14 -80 45 -114c1 -1 3 -2 3 -2c1 -1 54 22 59 17l-48 -29c0 -49 50 -108 112 -108s102 41 112 89c4 20 6 62 -11 85c-1 1 -2 3 -3 4c-3 4 -7 7 -11 9c1 1 2 1 3 2v0c5 3 10 6 16 9v0v0
s69 31 102 39z" />
    <glyph glyph-name="uniF109" unicode="&#xf109;" 
d="M256 448c141 0 256 -115 256 -256s-115 -256 -256 -256s-256 115 -256 256s115 256 256 256zM19 192c0 -65 25 -123 67 -166c10 7 19 15 27 23v0l-1 39h19v-17c9 12 17 25 23 39l-16 33l17 8l8 -16c4 15 7 31 8 47l-27 20l12 15l15 -12c-1 17 -5 34 -10 50l-32 7l4 18
l20 -4c-6 14 -13 26 -22 38h-38v19h22c-9 9 -19 18 -29 25c-42 -43 -67 -102 -67 -166zM256 -45c59 0 114 22 156 58c-9 6 -17 13 -25 21l-38 1v19l21 -1c-11 14 -20 30 -28 46l-37 18l9 17l18 -9c-5 16 -9 31 -10 48l-27 36l15 12l12 -16c1 17 4 33 8 48l-10 47l18 4l4 -19
c7 14 15 29 24 41v38h19v-17c8 9 17 17 27 24c-42 36 -97 58 -156 58c-60 0 -114 -22 -156 -58c10 -7 20 -15 28 -24v17h18v-39c9 -13 17 -27 24 -41l4 20l19 -4l-11 -48c4 -15 7 -32 8 -48l13 17l15 -12l-29 -37c-1 -17 -4 -33 -9 -48l19 10l8 -17l-37 -18
c-7 -16 -17 -32 -28 -46l21 1l1 -19l-39 -1c-8 -8 -16 -15 -25 -21c42 -36 96 -58 156 -58zM425 26c42 43 68 101 68 166s-26 123 -68 166c-10 -7 -19 -16 -28 -25h23v-19h-39v1c-9 -12 -17 -25 -23 -39l21 4l4 -18l-33 -7c-5 -16 -8 -33 -9 -50l16 12l11 -15l-27 -21
c1 -16 3 -32 8 -47l8 17l17 -8l-16 -33c6 -14 14 -28 23 -40v18h19l-1 -39h-1c8 -9 17 -16 27 -23z" />
    <glyph glyph-name="uniF10A" unicode="&#xf10a;" 
d="M465 448c26 0 47 -21 47 -47v-271c0 -26 -21 -47 -47 -47h-418c-26 0 -47 21 -47 47v271c0 26 21 47 47 47h418zM266 313v-95c22 5 39 25 39 48s-17 42 -39 47zM19 383v-66h106c-10 21 -27 37 -50 49s-46 16 -56 17zM19 298v-63h113c2 9 4 20 4 31c0 12 -1 22 -4 32h-113
zM19 216v-67c26 4 82 18 106 67h-106zM248 218v96c-23 -4 -41 -24 -41 -48s18 -44 41 -48zM248 333v96h-201c-15 0 -28 -12 -28 -27c23 -3 135 -21 135 -136c0 -105 -100 -130 -135 -135v-1c0 -15 13 -28 28 -28h201v97c-33 4 -59 33 -59 67s26 63 59 67zM493 130v1
c-36 6 -134 31 -134 135c0 112 108 133 134 136c0 15 -13 27 -28 27h-199v-97c32 -5 57 -32 57 -66s-25 -62 -57 -67v-97h199c15 0 28 13 28 28zM493 150v66h-104c10 -21 28 -38 53 -50c19 -9 38 -14 51 -16zM493 235v63h-111c-3 -10 -4 -20 -4 -32c0 -11 2 -21 4 -31h111z
M493 317v66c-20 -3 -80 -14 -104 -66h104z" />
    <glyph glyph-name="uniF10B" unicode="&#xf10b;" 
d="M512 285v-195s-71 -14 -142 -25l-12 -129l-18 2v5h-168v-5l-18 -2l-13 129c-71 11 -141 25 -141 25v195s78 163 256 163s256 -163 256 -163zM155 114l5 -51l25 25zM287 103l29 28h-58zM287 77l-30 -29l30 -27l29 29zM274 90l-31 29l-31 -30l31 -28zM230 48l-31 27
l-30 -29l30 -29zM198 101l30 30h-63zM164 25l4 -38l17 17zM170 -38h60l-31 30l-29 -29v-1zM212 4l29 -27l33 31l-30 27zM257 -38v0h69l-38 34l-33 -32zM343 -29l4 49l-17 17l-29 -28zM350 44l1 13l-8 -7zM354 86l4 45h-16l-41 -41l29 -27zM372 84c49 8 97 17 121 22v175
c-12 23 -86 148 -237 148s-224 -124 -237 -148v-175c24 -5 72 -14 121 -22l-5 47h-20v18h282v-18h-20zM136 174v149h241v-149h-19v130h-204v-130h-18z" />
    <glyph glyph-name="uniF10C" unicode="&#xf10c;" 
d="M256 448c141 0 256 -115 256 -256s-115 -256 -256 -256s-256 115 -256 256s115 256 256 256zM82 353c-37 -40 -60 -93 -63 -151h119c-3 71 -40 128 -56 151zM19 184c2 -59 25 -112 62 -152c16 21 54 79 57 152h-119zM245 -45v229h-88c-3 -82 -46 -145 -63 -166
c40 -37 93 -60 151 -63zM245 202v227c-58 -3 -110 -25 -150 -62c17 -23 57 -86 61 -165h89zM493 202c-3 59 -26 113 -64 153c-16 -22 -53 -81 -57 -153h121zM264 429v-227h89c4 81 46 144 62 166c-40 37 -93 59 -151 61zM264 -45c59 2 112 25 152 62c-16 20 -60 83 -63 167
h-89v-229zM430 30c38 41 61 95 63 154h-121c3 -75 43 -134 58 -154z" />
    <glyph glyph-name="uniF10D" unicode="&#xf10d;" 
d="M413 333c55 0 99 -44 99 -99s-44 -100 -99 -100c-54 0 -98 43 -100 96h-63l-78 127l-19 -40c28 -18 46 -48 46 -83c0 -55 -45 -100 -100 -100s-99 45 -99 100s44 99 99 99c13 0 26 -2 37 -7l58 122h60v-19h-48l-32 -67h172l21 -40c14 7 30 11 46 11zM180 234
c0 28 -14 51 -35 66l-35 -74l-17 9l35 74c-9 3 -19 5 -29 5c-44 0 -80 -36 -80 -80s36 -81 80 -81s81 37 81 81zM360 295c-13 -11 -22 -28 -26 -46h50zM203 343l54 -87l65 87h-119zM276 249v0h38c4 25 18 48 37 63l-12 22zM413 153c44 0 80 37 80 81s-36 80 -80 80
c-13 0 -26 -3 -37 -9l40 -75h-84c2 -43 38 -77 81 -77zM306 380v19h67v-19h-67z" />
    <glyph glyph-name="uniF10E" unicode="&#xf10e;" 
d="M465 448c26 0 47 -21 47 -47v-271c0 -26 -21 -46 -47 -46h-378c-19 -19 -37 -38 -55 -56l-13 13c14 14 28 29 42 43h-14c-26 0 -47 20 -47 46v271c0 26 21 47 47 47h418zM493 134v0v261c-4 -2 -8 -3 -12 -3c-15 0 -28 13 -28 28c0 3 1 6 2 9h-171c1 -3 2 -6 2 -9
c0 -15 -13 -28 -28 -28s-28 13 -28 28c0 3 1 6 2 9h-173c1 -3 2 -6 2 -9c0 -15 -13 -28 -28 -28c-5 0 -10 1 -14 4v-261c4 2 7 3 12 3c15 0 28 -13 28 -28c0 -3 0 -6 -1 -8h21l284 284l13 -13c-88 -88 -181 -182 -270 -271h123c-1 2 -1 5 -1 8c0 15 13 28 28 28
s28 -13 28 -28c0 -3 0 -6 -1 -8h170c-1 2 -2 5 -2 8c0 15 13 28 28 28c5 0 10 -2 14 -4zM128 266c0 12 7 18 19 18s18 -6 18 -18s-6 -19 -18 -19s-19 7 -19 19zM411 214l-90 52l90 52v-104zM392 246v40l-34 -20z" />
    <glyph glyph-name="uniF10F" unicode="&#xf10f;" 
d="M256 448c141 0 256 -115 256 -256s-115 -256 -256 -256s-256 115 -256 256s115 256 256 256zM256 -45c131 0 237 106 237 237s-106 237 -237 237s-237 -106 -237 -237s106 -237 237 -237zM337 168c-2 0 -3 1 -5 1c-18 4 -28 23 -24 45c4 21 21 37 39 33
c9 -2 17 -8 21 -17c4 -8 5 -18 3 -28c-4 -19 -18 -34 -34 -34zM327 211c-2 -11 2 -23 9 -24c6 -1 15 6 17 18c1 6 0 12 -2 17c-1 2 -3 6 -7 7h-2c-6 0 -13 -7 -15 -18zM463 211c4 -8 5 -18 3 -28c-4 -19 -18 -34 -34 -34c-2 0 -3 1 -5 1c-18 4 -28 23 -24 45
c4 21 22 37 40 33c9 -2 16 -8 20 -17zM448 186c1 6 0 12 -2 17c-1 2 -3 6 -7 7h-2c-6 0 -13 -8 -15 -19s2 -22 9 -23c6 -1 15 6 17 18zM368 100c18 -4 27 -23 23 -45c-4 -19 -18 -33 -34 -33h-5c-9 2 -17 8 -21 17c-4 8 -5 19 -3 29c4 21 22 36 40 32zM373 59
c2 11 -2 22 -9 23h-2c-6 0 -13 -7 -15 -18c-1 -6 -1 -12 1 -17c1 -2 4 -5 8 -6c6 -1 15 6 17 18z" />
    <glyph glyph-name="uniF110" unicode="&#xf110;" 
d="M488 424c7 -6 24 -25 24 -53c0 -24 -12 -48 -36 -71c-39 -39 -69 -53 -93 -64l-59 -54c0 -3 -1 -6 -1 -10c-3 -29 -9 -74 -73 -140c-88 -90 -173 -94 -189 -94v0h-2h-5l-35 32v0l-19 19v5c0 4 -2 96 96 192c65 64 110 68 140 71c4 0 8 2 11 2l54 59c11 24 24 54 63 94
c23 24 47 36 71 36c27 0 46 -17 53 -24zM298 174c0 3 1 7 1 10l-50 50c-3 0 -6 -1 -10 -1c-28 -3 -66 -6 -125 -64c-78 -77 -88 -150 -89 -169l18 -18l21 -20c20 1 92 9 169 88c58 59 62 96 65 124zM313 205l46 42l-47 46l-41 -46zM459 317c19 18 28 37 28 54
c0 18 -12 31 -17 36s-17 16 -35 16c-17 0 -34 -9 -53 -28c-33 -33 -45 -59 -55 -81l52 -52c22 10 47 23 80 55z" />
    <glyph glyph-name="uniF111" unicode="&#xf111;" horiz-adv-x="416" 
d="M211 448c112 0 205 -74 205 -217c0 -70 -41 -141 -93 -186v-59c0 -28 -21 -50 -48 -50h-136c-27 0 -48 22 -48 50v54c-43 30 -59 67 -72 105c-28 86 -28 135 14 159c10 6 22 8 33 8c18 0 23 -6 25 -11v40s8 107 120 107zM304 -14v54c-32 -13 -71 -20 -111 -20
c-30 0 -57 4 -83 11v-45c0 -17 13 -31 29 -31h136c16 0 29 14 29 31zM321 69c45 41 76 104 76 162c0 137 -88 198 -186 198c-39 0 -67 -14 -85 -43c-13 -21 -16 -42 -16 -46v-186l-17 16s8 123 -18 123c-9 0 -25 -2 -32 -6c-25 -14 -36 -43 -6 -136c10 -32 18 -65 61 -94
c27 -10 60 -18 95 -18c51 0 97 12 128 30z" />
    <glyph glyph-name="uniF112" unicode="&#xf112;" 
d="M493 357h19v-158v-6v-101l-256 -149l-255 150v100h-1v164h19v-36l228 89v38h18v-37l228 -90v36zM265 390v0v-35l185 -72l41 19zM410 243l36 -16l41 21l-37 14zM425 216l-37 17l-123 -59v-38zM265 334v-27l122 -54l39 18zM247 390l-224 -88l41 -19l183 71v36zM246 116
l-180 91l-24 -11l204 -115v35zM27 248l40 -20l36 16l-39 19zM89 217l157 -80v39l-121 57zM87 272l39 -18l121 53v27zM19 284v-19l21 9zM19 231v-24l26 11zM19 103l228 -133v82h-1v8l-224 126h-3v-83zM246 225h19v-10v-20l100 47l-109 48l-108 -47l98 -47v19v10zM265 115v-34
l205 115l-23 11zM493 103v83h-3l-225 -127l1 -89zM493 207v23l-25 -12zM493 266v17l-19 -10z" />
    <glyph glyph-name="uniF113" unicode="&#xf113;" horiz-adv-x="340" 
d="M340 448v0v-142l-87 -56c51 -29 85 -83 85 -146c0 -92 -75 -168 -167 -168s-168 76 -168 168c0 63 35 117 86 146l-89 56v142h340zM118 430v-167c17 5 35 8 53 8s34 -2 50 -7v166h-103zM18 316l82 -52v166h-82v-114zM320 104c0 82 -67 149 -149 149s-150 -67 -150 -149
s68 -150 150 -150s149 68 149 150zM322 316v114h-83v-167zM135 174l45 45v-195h24v-18h-63v18h21v151l-14 -14z" />
    <glyph glyph-name="uniF114" unicode="&#xf114;" 
d="M358 314l14 -14l-22 -22l16 -16l-14 -14l-16 16l-22 -21l16 -16l-14 -14l-16 15l-21 -21l16 -16l-15 -14l-15 16l-22 -22l16 -15l-14 -15l-16 16l-21 -21l15 -16l-14 -14l-16 16l-21 -22l16 -16l-14 -14l-16 16l-22 -22l-14 14l21 22l-15 15l15 14l15 -15l21 22l-15 15
l14 14l15 -15l22 21l-15 15l14 15l15 -15l21 21l-15 15l15 14l15 -15l21 22l-15 15l14 14l15 -15l22 21l-15 15l14 15l15 -15zM510 436c0 -3 6 -65 -4 -145c-10 -74 -36 -178 -107 -249c-87 -87 -216 -105 -308 -105c-45 0 -75 4 -76 4l-7 2l-1 7c-2 10 -42 240 101 383
c100 100 250 115 331 115c37 0 61 -3 62 -3l8 -1zM384 56c116 116 109 326 106 370c-10 1 -28 2 -51 2c-78 0 -222 -15 -317 -110c-122 -122 -103 -318 -97 -358c11 -1 35 -3 66 -3c72 0 207 13 293 99z" />
    <glyph glyph-name="uniF115" unicode="&#xf115;" 
d="M358 314l14 -14l-22 -22l16 -16l-14 -14l-16 16l-22 -21l16 -16l-14 -14l-16 15l-21 -21l16 -16l-15 -14l-15 16l-22 -22l16 -15l-14 -15l-16 16l-21 -21l15 -16l-14 -14l-16 16l-21 -22l16 -16l-14 -14l-16 16l-22 -22l-14 14l21 22l-15 15l15 14l15 -15l21 22l-15 15
l14 14l15 -15l22 21l-15 15l14 15l15 -15l21 21l-15 15l15 14l15 -15l21 22l-15 15l14 14l15 -15l22 21l-15 15l14 15l15 -15zM510 436c0 -3 6 -65 -4 -145c-10 -74 -36 -178 -107 -249c-87 -87 -216 -105 -308 -105c-45 0 -75 4 -76 4l-7 2l-1 7c-2 10 -42 240 101 383
c100 100 250 115 331 115c37 0 61 -3 62 -3l8 -1zM91 -43h20l-90 90c-1 -41 2 -73 4 -87c11 -1 35 -3 66 -3zM384 56c73 73 98 183 105 265l-104 104c-80 -7 -187 -31 -263 -107c-72 -72 -94 -168 -100 -244l116 -115c75 6 176 27 246 97zM491 347c2 36 0 66 -1 79
c-10 1 -28 2 -51 2c-9 0 -18 -1 -28 -1z" />
    <glyph glyph-name="uniF116" unicode="&#xf116;" 
d="M465 448c26 0 47 -21 47 -47v-271c0 -26 -21 -47 -47 -47h-418c-26 0 -47 21 -47 47v271c0 26 21 47 47 47h418zM79 102v327h-32c-15 0 -28 -13 -28 -28v-271c0 -15 13 -28 28 -28h32zM163 102v327h-65v-327h65zM246 102v327h-65v-327h65zM330 102v327h-65v-327h65z
M414 102v327h-65v-327h65zM493 130v271c0 15 -13 28 -28 28h-32v-327h32c15 0 28 13 28 28zM106 327c0 6 4 9 10 9s9 -3 9 -9s-3 -10 -9 -10s-10 4 -10 10zM106 206c0 6 4 9 10 9s9 -3 9 -9s-3 -10 -9 -10s-10 4 -10 10zM134 327c0 6 4 9 10 9s9 -3 9 -9s-3 -10 -9 -10
s-10 4 -10 10zM134 206c0 6 4 9 10 9s9 -3 9 -9s-3 -10 -9 -10s-10 4 -10 10zM190 327c0 6 3 9 9 9s10 -3 10 -9s-4 -10 -10 -10s-9 4 -9 10zM190 206c0 6 3 9 9 9s10 -3 10 -9s-4 -10 -10 -10s-9 4 -9 10zM218 327c0 6 3 9 9 9s10 -3 10 -9s-4 -10 -10 -10s-9 4 -9 10z
M218 206c0 6 3 9 9 9s10 -3 10 -9s-4 -10 -10 -10s-9 4 -9 10zM274 327c0 6 3 9 9 9s9 -3 9 -9s-3 -10 -9 -10s-9 4 -9 10zM274 206c0 6 3 9 9 9s9 -3 9 -9s-3 -10 -9 -10s-9 4 -9 10zM302 327c0 6 3 9 9 9s9 -3 9 -9s-3 -10 -9 -10s-9 4 -9 10zM302 206c0 6 3 9 9 9
s9 -3 9 -9s-3 -10 -9 -10s-9 4 -9 10zM358 327c0 6 3 9 9 9s9 -3 9 -9s-3 -10 -9 -10s-9 4 -9 10zM358 206c0 6 3 9 9 9s9 -3 9 -9s-3 -10 -9 -10s-9 4 -9 10zM386 327c0 6 3 9 9 9s9 -3 9 -9s-3 -10 -9 -10s-9 4 -9 10zM386 206c0 6 3 9 9 9s9 -3 9 -9s-3 -10 -9 -10
s-9 4 -9 10z" />
    <glyph glyph-name="uniF117" unicode="&#xf117;" 
d="M254 155c21 0 37 -16 37 -37s-16 -38 -37 -38s-38 17 -38 38s17 37 38 37zM254 99c10 0 18 9 18 19s-8 19 -18 19s-19 -9 -19 -19s9 -19 19 -19zM336 141h176l-28 -115l-9 2c-51 14 -134 36 -148 39c-5 -6 -10 -12 -18 -17c-19 -12 -38 -17 -56 -17c-43 0 -80 25 -102 25
c-3 0 -5 0 -7 -1c-25 -9 -37 -41 -49 -41c-3 0 -7 2 -10 7c-52 75 -85 88 -85 208s97 217 217 217s218 -97 218 -217c0 -27 -99 -14 -113 -38c-4 -7 7 -28 14 -52zM320 96c0 10 1 24 -1 35l-1 3c-2 8 -5 17 -8 26c-6 18 -11 30 -4 42c11 20 40 23 71 27c12 1 31 3 39 6
c-2 107 -91 194 -199 194c-109 0 -198 -89 -198 -198c0 -90 18 -114 52 -158c7 -10 16 -21 25 -33l2 2c9 11 20 26 39 33c4 1 9 2 14 2c13 0 26 -4 42 -10c18 -7 39 -15 60 -15c16 0 31 5 45 14c13 9 19 19 22 30zM410 65l15 57h-85c1 -10 1 -18 -1 -28c0 -3 0 -7 -1 -10
c15 -3 42 -11 72 -19zM471 49l17 73h-43l-16 -62c14 -4 28 -7 42 -11z" />
    <glyph glyph-name="uniF118" unicode="&#xf118;" horiz-adv-x="480" 
d="M187 314l-14 13l21 21l-21 21l14 14l21 -21l20 21l14 -14l-21 -21l21 -21l-14 -13l-20 21zM312 314l-13 13l20 21l-20 21l13 14l21 -21l21 21l14 -14l-21 -21l21 -21l-14 -13l-21 21zM303 221l-14 -14l-21 21l-21 -21l-13 14l21 21l-21 21l13 13l21 -20l21 20l14 -13
l-21 -21zM326 91c-21 0 -39 17 -39 38s18 39 39 39s39 -18 39 -39s-18 -38 -39 -38zM326 149c-11 0 -19 -9 -19 -20s8 -19 19 -19s19 8 19 19s-8 20 -19 20zM131 207l-13 14l21 21l-21 21l13 13l21 -20l21 20l14 -13l-21 -21l21 -21l-14 -14l-21 21zM210 168
c21 0 39 -18 39 -39s-18 -38 -39 -38s-38 17 -38 38s17 39 38 39zM210 110c11 0 19 8 19 19s-8 20 -19 20s-19 -9 -19 -20s8 -19 19 -19zM152 13c21 0 39 -17 39 -38s-18 -39 -39 -39s-38 18 -38 39v2l-90 48l7 -33l-18 -4l-13 58l46 22l8 -17l-19 -10l85 -45
c7 10 18 17 32 17zM152 -45c11 0 20 9 20 20s-9 19 -20 19s-19 -8 -19 -19s8 -20 19 -20zM336 42c21 0 38 -17 38 -38s-17 -39 -38 -39s-39 18 -39 39s18 38 39 38zM336 -16c11 0 19 9 19 20s-8 19 -19 19s-20 -8 -20 -19s9 -20 20 -20zM15 207l-13 14l21 21l-21 21l13 13
l21 -20l21 20l14 -13l-21 -21l21 -21l-14 -14l-21 21zM56 129c0 21 17 39 38 39s39 -18 39 -39s-18 -38 -39 -38s-38 17 -38 38zM94 149c-11 0 -19 -9 -19 -20s8 -19 19 -19s20 8 20 19s-9 20 -20 20zM470 404l-29 16l38 -211l-89 -164l-18 9l87 158l-38 204l-24 -21l-13 15
l44 38l52 -27z" />
    <glyph glyph-name="uniF119" unicode="&#xf119;" horiz-adv-x="447" 
d="M428 448h19v-295c0 -31 -25 -56 -56 -56h-158v-11c17 -4 30 -19 30 -37v-113h-19v113c0 11 -8 19 -19 19s-19 -8 -19 -19v-113h-18v113c0 17 11 31 26 36v12h-158c-31 0 -56 25 -56 56v295h19v-295c0 -21 16 -37 37 -37h335c21 0 37 16 37 37v295z" />
    <glyph glyph-name="uniF11A" unicode="&#xf11a;" horiz-adv-x="394" 
d="M179 135c0 0 22 -9 47 -9s47 9 47 9c26 0 46 -21 46 -46v-46c0 -26 -74 -55 -93 -55s-93 29 -93 55v46c0 25 20 46 46 46zM276 116c-8 -3 -28 -9 -50 -9s-42 6 -50 9c-14 -2 -24 -13 -24 -27v-45c6 -13 59 -37 74 -37s69 24 74 37v45c0 14 -10 26 -24 27zM370 380
c13 0 24 -11 24 -24s-11 -24 -24 -24h-65h-4v-6c38 -10 63 -25 64 -26l-10 -315s-38 -49 -129 -49s-131 49 -131 49l-1 33c-25 8 -115 47 -90 173c11 55 27 84 50 88c13 3 25 -3 33 -10l-1 31c1 1 19 13 49 23v42h-64c-13 0 -24 11 -24 24s11 24 24 24h65
c13 0 24 -11 24 -24c0 -6 -3 -13 -7 -17v-44c11 3 24 5 37 7v70h1c-2 4 -4 8 -4 13c0 16 14 30 30 30h82c16 0 30 -14 30 -30s-14 -30 -30 -30h-82c-3 0 -5 1 -8 2v-53h12c22 0 44 -3 62 -7v17c-1 3 -2 6 -2 9c0 13 11 24 24 24h65zM22 187c-21 -104 45 -140 72 -150l-6 207
l-2 -1c-4 6 -17 20 -28 18c-6 -1 -24 -11 -36 -74zM221 319c-4 0 -8 -1 -12 -1v-51c6 -1 12 -1 17 -1c18 0 38 4 57 8v37c-18 4 -39 8 -62 8zM217 430c-6 0 -11 -6 -11 -12s5 -11 11 -11h82c6 0 11 5 11 11s-5 12 -11 12h-82zM153 309v-31c12 -3 25 -6 37 -8v47
c-14 -2 -26 -5 -37 -8zM71 383h64v2h5c1 1 1 2 1 4c0 3 -2 5 -5 5h-65c-3 0 -6 -2 -6 -5s3 -6 6 -6zM135 303c-11 -4 -20 -8 -26 -11c8 -3 16 -6 26 -9v20zM337 -8l8 281c-30 -10 -79 -25 -119 -25s-91 15 -121 25l8 -281c11 -11 47 -38 113 -38c65 0 100 27 111 38z
M337 290c-8 4 -20 11 -36 16v-27c13 4 26 7 36 11zM370 350c3 0 5 3 5 6s-2 5 -5 5h-65c-3 0 -6 -2 -6 -5c0 -1 1 -2 1 -3h1v-1c1 -1 3 -2 4 -2h65z" />
    <glyph glyph-name="uniF11B" unicode="&#xf11b;" horiz-adv-x="243" 
d="M243 326c0 -45 -25 -84 -61 -105c12 -9 20 -24 20 -40l-46 -17l-35 -228l-34 226l-46 19c0 16 8 31 20 40c-36 21 -61 60 -61 105c0 67 55 122 122 122s121 -55 121 -122zM150 182l31 11c-4 9 -11 16 -20 19c-12 -4 -25 -7 -39 -7s-28 3 -40 7c-9 -3 -16 -10 -20 -19
l32 -13l10 -4l2 -11l15 -104l16 106l2 11zM122 224c57 0 102 45 102 102s-45 103 -102 103s-103 -46 -103 -103s46 -102 103 -102z" />
    <glyph glyph-name="uniF11C" unicode="&#xf11c;" 
d="M256 448c141 0 256 -115 256 -256s-115 -256 -256 -256s-256 115 -256 256s115 256 256 256zM256 -45c131 0 237 106 237 237s-106 237 -237 237s-237 -106 -237 -237s106 -237 237 -237zM137 351c0 21 16 37 37 37v-18c-10 0 -19 -9 -19 -19s9 -18 19 -18v-19
c-21 0 -37 16 -37 37zM137 238c0 21 16 37 37 37v-18c-10 0 -19 -9 -19 -19s9 -19 19 -19v-18c-21 0 -37 16 -37 37zM71 95c0 21 16 38 37 38v-19c-10 0 -18 -9 -18 -19s8 -18 18 -18v-19c-21 0 -37 16 -37 37zM137 33c0 21 16 37 37 37v-19c-10 0 -19 -8 -19 -18
s9 -19 19 -19v-19c-21 0 -37 17 -37 38zM209 11c0 21 16 37 37 37v-19c-10 0 -19 -8 -19 -18s9 -19 19 -19v-19c-21 0 -37 17 -37 38zM137 142c0 21 16 37 37 37v-18c-10 0 -19 -9 -19 -19s9 -19 19 -19v-18c-21 0 -37 16 -37 37zM209 373c0 21 16 37 37 37v-19
c-10 0 -19 -8 -19 -18s9 -19 19 -19v-19c-21 0 -37 17 -37 38zM71 291c0 21 16 37 37 37v-19c-10 0 -18 -8 -18 -18s8 -19 18 -19v-18c-21 0 -37 16 -37 37zM80 173v-18c-21 0 -37 16 -37 37s16 37 37 37v-18c-10 0 -18 -9 -18 -19s8 -19 18 -19z" />
    <glyph glyph-name="uniF11D" unicode="&#xf11d;" horiz-adv-x="510" 
d="M255 102c141 0 255 -37 255 -83s-114 -83 -255 -83s-255 37 -255 83c0 32 55 60 135 74v226h-1s1 1 1 2v127h19v-3c25 4 82 9 107 -16c24 -24 77 -11 78 -11l18 5l-7 -17c-11 -29 -48 -79 -110 -60c-51 15 -78 -17 -86 -30v-220c31 4 65 6 101 6zM154 426v0v-82
c18 17 48 33 92 20c42 -13 67 14 79 33c-21 -2 -56 -2 -77 19c-18 18 -68 14 -94 10zM430 -22c43 14 62 31 62 41s-19 27 -62 41c-46 15 -109 24 -175 24c-36 0 -70 -2 -101 -7v-44c11 -1 18 -5 18 -9c0 -5 -12 -9 -27 -9s-28 4 -28 9c0 4 7 8 18 9v41
c-20 -4 -39 -9 -55 -14c-43 -14 -61 -31 -61 -41s18 -27 61 -41c46 -15 109 -23 175 -23s129 8 175 23z" />
    <glyph glyph-name="uniF11E" unicode="&#xf11e;" 
d="M512 414l-188 -293h29l159 247v-35l-136 -212h89c26 0 47 -20 47 -46v-10c0 -26 -21 -46 -47 -46c0 0 -127 -19 -209 -19s-209 19 -209 19c-26 0 -47 20 -47 46v10c0 26 21 46 47 46h255v1l210 326v-34zM493 75c0 15 -13 28 -28 28h-418c-15 0 -28 -13 -28 -28v-10
c0 -15 13 -28 28 -28h1h1c1 0 128 -18 207 -18s206 18 207 18h1h1c15 0 28 13 28 28v10z" />
    <glyph glyph-name="uniF11F" unicode="&#xf11f;" 
d="M153 191c85 0 153 -18 153 -40v-2v0v-84v0c-5 -21 -72 -37 -153 -37c-85 0 -153 17 -153 39v3v0v84v0c5 21 72 37 153 37zM153 172c-71 0 -116 -12 -131 -21c15 -9 60 -21 131 -21s116 12 131 21c-15 9 -60 21 -131 21zM288 86v0v46c-26 -12 -77 -20 -135 -20
s-108 8 -134 20v-62v0v-2c8 -5 16 -7 25 -9c23 -6 60 -13 109 -13c71 0 116 12 131 21v0c2 1 2 3 3 5v0c0 1 1 1 1 2v11l-1 1h1zM493 448h19l-32 -167c-9 -34 -20 -47 -46 -47l-372 -9c-26 0 -47 21 -47 47l-9 93c0 26 20 47 46 47l354 -38c8 0 20 31 34 74h19
c-27 -83 -37 -92 -53 -92h-1h-1l-22 2v-106l51 1c13 0 21 2 29 31zM112 245v142l-60 6c-15 0 -28 -12 -28 -27l10 -92v-1v-1c0 -15 13 -28 28 -28zM364 251v109l-234 25v-140z" />
    <glyph glyph-name="uniF120" unicode="&#xf120;" 
d="M42 305v19h44v-117h-44v18h25v80h-25zM426 207v117h44v-19h-25v-80h25v-18h-44zM465 448c26 0 47 -21 47 -47v-271c0 -26 -21 -47 -47 -47h-418c-26 0 -47 21 -47 47v271c0 26 21 47 47 47h418zM264 323v-113c27 5 47 28 47 56s-20 52 -47 57zM121 102v327h-74
c-15 0 -28 -13 -28 -28v-24v-25v-19v-136v-18v-37v-12c0 -15 13 -28 28 -28h74zM245 209v114c-28 -4 -49 -28 -49 -57s21 -53 49 -57zM245 342v87h-105v-327h105v88c-38 4 -68 37 -68 76s30 72 68 76zM372 102v327h-108v-87c37 -5 66 -37 66 -76s-29 -70 -66 -75v-89h108z
M493 378v23c0 15 -13 28 -28 28h-74v-327h74c15 0 28 13 28 28v30v19v18v136v19v26z" />
    <glyph glyph-name="uniF121" unicode="&#xf121;" 
d="M0 448h512v-302l-256 -209l-256 209v302zM493 154v275h-474v-275l237 -193zM466 305v-136l-210 -177v25l192 160v128h18z" />
    <glyph glyph-name="uniF122" unicode="&#xf122;" horiz-adv-x="414" 
d="M396 167h18v-184c0 -26 -21 -47 -47 -47h-320c-26 0 -47 21 -47 47v184h24c26 0 46 21 46 47v234h80v-82c0 -26 20 -47 46 -47h21c26 0 47 21 47 47v82h86v-234c0 -26 20 -47 46 -47zM395 -17v2h-376v-2c0 -15 13 -28 28 -28h320c15 0 28 13 28 28zM395 4v145
c-35 1 -64 29 -64 65v215h-48v-63c0 -36 -30 -66 -66 -66h-21c-36 0 -65 30 -65 66v63h-42v-215c0 -36 -29 -65 -65 -65h-5v-145h376zM160 255c23 0 42 -19 42 -42v-133c0 -23 -19 -41 -42 -41s-41 18 -41 41v133c0 23 18 42 41 42zM184 80v133c0 13 -11 23 -24 23
s-23 -10 -23 -23v-133c0 -13 10 -23 23 -23s24 10 24 23zM263 255c23 0 42 -19 42 -42v-133c0 -23 -19 -41 -42 -41s-42 18 -42 41v133c0 23 19 42 42 42zM286 80v133c0 13 -10 23 -23 23s-24 -10 -24 -23v-133c0 -13 11 -23 24 -23s23 10 23 23z" />
    <glyph glyph-name="uniF123" unicode="&#xf123;" horiz-adv-x="510" 
d="M303 235l-41 -42l242 -243l-14 -14l-243 243l-233 -233l-14 14l233 233l-33 33c-6 -3 -13 -5 -19 -5c-14 0 -28 7 -41 20l-122 60c-21 21 -21 56 0 77l52 52c11 11 24 16 38 16s28 -5 39 -16l60 -122c21 -21 28 -48 8 -69l32 -31l43 42c-11 19 -3 42 15 60l60 122
c11 11 25 16 39 16s27 -5 38 -16l52 -51c21 -21 21 -57 0 -78l-122 -60c-13 -13 -27 -20 -41 -20c-10 0 -19 4 -28 12zM382 420l-26 -53l72 -72l-5 -4l58 29c5 6 8 14 8 22c0 9 -4 18 -10 24l-51 52c-6 6 -15 10 -24 10c-8 0 -16 -3 -22 -8zM346 348l-12 -26l50 -50l26 13z
M320 296c-11 -11 -22 -27 -8 -41l5 -5c6 -6 11 -7 14 -7c8 0 18 6 27 15l2 2l3 2h1l-40 40v-1l-2 -3zM31 318l56 -28l-5 5l73 73l-25 49c-6 5 -14 8 -22 8c-9 0 -18 -4 -24 -10l-51 -51c-6 -6 -10 -15 -10 -24c0 -8 3 -16 8 -22zM128 270l50 50l-14 29l-65 -65zM200 253
c7 7 7 13 6 17c-1 7 -6 16 -14 24l-2 2l-2 3v1l-40 -40h1l3 -2l2 -2c9 -9 19 -15 27 -15c5 0 10 2 14 7z" />
    <glyph glyph-name="uniF124" unicode="&#xf124;" 
d="M461 398c76 -76 65 -212 -25 -302c-34 -34 -74 -57 -115 -68c-46 0 -128 21 -153 30l-81 -122l-87 87l120 83c-8 23 -24 102 -28 151c11 41 34 81 68 115c50 50 114 76 174 76c48 0 93 -16 127 -50zM168 78c1 0 82 -26 135 -32l-192 191c8 -55 29 -130 29 -131l2 -7
l-113 -79l55 -54l77 115zM422 109c83 83 95 206 26 275c-29 29 -69 45 -114 45c-57 0 -116 -25 -161 -70c-28 -28 -48 -62 -60 -97l213 -212c35 12 68 31 96 59zM365 256c26 0 47 -22 47 -48s-21 -47 -47 -47s-48 21 -48 47s22 48 48 48zM365 179c16 0 28 13 28 29
s-12 29 -28 29s-29 -13 -29 -29s13 -29 29 -29z" />
    <glyph glyph-name="uniF125" unicode="&#xf125;" 
d="M300 225c0 -16 -9 -30 -21 -38c12 -8 21 -21 21 -37c0 -24 -20 -44 -44 -44s-45 20 -45 44c0 16 9 29 21 37c-12 8 -21 22 -21 38c0 24 21 44 45 44s44 -20 44 -44zM281 150c0 14 -11 26 -25 26s-26 -12 -26 -26s12 -26 26 -26s25 12 25 26zM256 199c14 0 25 12 25 26
s-11 25 -25 25s-26 -11 -26 -25s12 -26 26 -26zM256 448c141 0 256 -115 256 -256s-115 -256 -256 -256s-256 115 -256 256s115 256 256 256zM256 89c56 0 103 47 103 103s-47 102 -103 102s-102 -46 -102 -102s46 -103 102 -103z" />
    <glyph glyph-name="uniF126" unicode="&#xf126;" 
d="M256 448c141 0 256 -115 256 -256s-115 -256 -256 -256s-256 115 -256 256s115 256 256 256zM256 -45c131 0 237 106 237 237s-106 237 -237 237s-237 -106 -237 -237s106 -237 237 -237zM256 313c67 0 121 -54 121 -121s-54 -121 -121 -121s-121 54 -121 121
s54 121 121 121zM256 89c56 0 103 47 103 103s-47 102 -103 102s-102 -46 -102 -102s46 -103 102 -103zM300 225c0 -16 -9 -30 -21 -38c12 -8 21 -21 21 -37c0 -24 -20 -44 -44 -44s-45 20 -45 44c0 16 9 29 21 37c-12 8 -21 22 -21 38c0 24 21 44 45 44s44 -20 44 -44z
M281 150c0 14 -11 26 -25 26s-26 -12 -26 -26s12 -26 26 -26s25 12 25 26zM256 199c14 0 25 12 25 26s-11 25 -25 25s-26 -11 -26 -25s12 -26 26 -26z" />
    <glyph glyph-name="uniF127" unicode="&#xf127;" 
d="M256 448l256 -443h-512zM256 411l-224 -388h448zM256 245c-26 0 -47 21 -47 47s21 47 47 47s47 -21 47 -47s-21 -47 -47 -47zM256 320c-16 0 -29 -12 -29 -28s13 -29 29 -29s28 13 28 29s-12 28 -28 28zM248 190c0 -26 -21 -47 -47 -47s-47 21 -47 47s21 47 47 47
s47 -21 47 -47zM201 162c16 0 28 12 28 28s-12 29 -28 29s-29 -13 -29 -29s13 -28 29 -28zM136 136c26 0 47 -21 47 -47s-21 -47 -47 -47s-47 21 -47 47s21 47 47 47zM136 60c16 0 28 13 28 29s-12 28 -28 28s-29 -12 -29 -28s13 -29 29 -29zM256 136c26 0 47 -21 47 -47
s-21 -47 -47 -47s-47 21 -47 47s21 47 47 47zM256 60c16 0 28 13 28 29s-12 28 -28 28s-29 -12 -29 -28s13 -29 29 -29zM376 136c26 0 47 -21 47 -47s-21 -47 -47 -47s-47 21 -47 47s21 47 47 47zM376 60c16 0 29 13 29 29s-13 28 -29 28s-28 -12 -28 -28s12 -29 28 -29z
M358 190c0 -26 -21 -47 -47 -47s-47 21 -47 47s21 47 47 47s47 -21 47 -47zM311 162c16 0 29 12 29 28s-13 29 -29 29s-28 -13 -28 -29s12 -28 28 -28z" />
    <glyph glyph-name="uniF128" unicode="&#xf128;" horiz-adv-x="438" 
d="M404 377l34 -302s-34 -25 -94 -25c-30 0 -66 6 -108 25c-22 10 -42 23 -61 23c-53 0 -93 -25 -116 -50l11 -110l-19 -2l-23 235l-1 1v1l-27 273l19 2l2 -24c11 8 26 14 46 14c27 0 64 -11 114 -44c59 -39 104 -51 139 -51c58 0 84 34 84 34zM95 227c22 6 45 4 69 -4
l-7 70c-70 31 -110 3 -122 -7l9 -91c11 12 28 26 51 32zM174 305c9 -5 19 -9 29 -16c33 -22 65 -31 92 -33l-8 72c-36 7 -76 23 -117 50c-2 1 -2 2 -4 3zM244 92c24 -11 47 -18 70 -21l-8 79c-33 3 -71 13 -113 39c-2 1 -5 3 -7 4l9 -80c16 -5 33 -14 49 -21zM323 167
c43 0 73 14 84 20l-8 73c-11 -6 -29 -14 -51 -19c-9 -2 -21 -4 -33 -4z" />
    <glyph glyph-name="uniF129" unicode="&#xf129;" horiz-adv-x="438" 
d="M404 377l34 -302s-34 -25 -94 -25c-30 0 -66 6 -108 25c-22 10 -42 23 -61 23c-53 0 -93 -25 -116 -50l11 -110l-19 -2l-23 235l-1 1v1l-27 273l19 2l2 -24c11 8 26 14 46 14c27 0 64 -11 114 -44c59 -39 104 -51 139 -51c58 0 84 34 84 34zM320 325h-14l7 -70
c41 1 73 17 84 24l-7 63c-16 -9 -40 -17 -70 -17zM170 378c-2 1 -2 2 -4 3l8 -76c9 -5 19 -9 29 -16c33 -22 65 -31 92 -33l-8 72c-36 7 -76 23 -117 50zM23 402l10 -95c21 14 61 30 121 7l-8 79c-30 17 -57 26 -79 26v0c-21 0 -36 -8 -44 -17zM35 286l9 -91
c11 12 28 26 51 32c22 6 45 4 69 -4l-7 70c-70 31 -110 3 -122 -7zM175 116h1l-9 87c-24 10 -47 13 -67 7c-29 -8 -47 -30 -54 -41l10 -97c27 25 67 44 119 44zM177 283l7 -68c6 -3 13 -6 19 -10c38 -23 72 -34 101 -37l-7 69c-30 2 -66 11 -104 36c-6 4 -11 7 -16 10z
M244 92c24 -11 47 -18 70 -21l-8 79c-33 3 -71 13 -113 39c-2 1 -4 3 -6 4l8 -80c16 -5 33 -14 49 -21zM315 237l8 -70c43 -1 73 14 84 20l-8 73c-11 -6 -29 -14 -51 -19c-9 -2 -21 -4 -33 -4zM333 69c4 0 7 -1 11 -1c36 0 62 11 74 17l-9 83c-16 -8 -45 -19 -84 -19v0z" />
    <glyph glyph-name="uniF12A" unicode="&#xf12a;" 
d="M471 407c76 -76 42 -234 -77 -353s-277 -153 -353 -77s-42 234 77 353s277 153 353 77zM133 315c-73 -73 -112 -161 -111 -232c19 46 60 129 141 210c78 78 159 116 206 133c-71 3 -162 -37 -236 -111zM56 -8c14 -14 31 -22 50 -28c32 12 139 57 234 152
c99 99 136 204 144 228c-6 18 -15 35 -28 48c-14 14 -31 22 -50 28c-26 -8 -129 -46 -227 -144c-94 -94 -140 -200 -152 -233c5 -20 15 -37 29 -51zM379 69c75 75 115 166 111 238c-17 -46 -55 -129 -134 -208c-81 -81 -165 -123 -211 -141c71 -2 160 37 234 111z" />
    <glyph glyph-name="uniF12B" unicode="&#xf12b;" 
d="M485 421c36 -36 36 -96 0 -132l-326 -326c-18 -18 -42 -27 -66 -27s-48 9 -66 27c-36 36 -36 96 0 132l326 326c18 18 42 27 66 27s48 -9 66 -27zM471 302c14 14 21 33 21 53s-7 38 -21 52s-32 21 -52 21s-39 -7 -53 -21l-325 -325c-29 -29 -29 -76 0 -105
c14 -14 32 -21 52 -21s38 7 52 21zM399 289c6 6 14 6 20 0s6 -15 0 -21l-21 -21c-6 -6 -14 -6 -20 0s-6 14 0 20l3 3l-47 47l-3 -4c-6 -6 -14 -6 -20 0s-6 14 0 20l21 22c6 6 14 6 20 0s6 -14 0 -20l-4 -4l47 -47zM182 70c6 6 14 6 20 0s6 -14 0 -20l-22 -22
c-6 -6 -14 -6 -20 0s-6 14 0 20l5 5l-47 47l-5 -4c-6 -6 -14 -6 -20 0s-6 14 0 20l22 22c6 6 14 6 20 0s6 -14 0 -20l-3 -4l47 -47z" />
    <glyph glyph-name="uniF12C" unicode="&#xf12c;" 
d="M465 448c26 0 47 -21 47 -47v-271c0 -26 -21 -47 -47 -47h-418c-26 0 -47 21 -47 47v271c0 26 21 47 47 47h418zM264 323v-113c27 5 47 28 47 56s-20 52 -47 57zM19 333v-136h48v136h-48zM245 209v114c-28 -4 -49 -28 -49 -57s21 -53 49 -57zM245 342v87h-101h-4h-19h-11
h-63c-15 0 -28 -13 -28 -28v-24v-25h67v-173h-67v-37v-12c0 -15 13 -28 28 -28h63h11h19h4h101v88c-38 4 -68 37 -68 76s30 72 68 76zM493 197v136h-48v-136h48zM493 378v23c0 15 -13 28 -28 28h-63h-11h-19h-12h-96v-87c37 -5 66 -37 66 -76s-29 -70 -66 -75v-89h96h12h19
h11h63c15 0 28 13 28 28v30v19h-67v173h67v26z" />
    <glyph glyph-name="uniF12D" unicode="&#xf12d;" 
d="M256 448c141 0 256 -115 256 -256s-115 -256 -256 -256s-256 115 -256 256s115 256 256 256zM267 357v-63l95 -70l62 20l29 81c-26 39 -63 69 -107 87zM175 415c-39 -14 -73 -38 -99 -68l20 -99l55 -23l97 71v63v0zM54 68l86 -10l41 36l-37 114l-53 22l-72 -40
c0 -45 13 -86 35 -122zM321 -36l25 73l-31 45h-119l-45 -39l14 -70c28 -12 59 -18 91 -18c23 0 44 3 65 9zM363 46l79 -1c28 36 47 80 51 128l-68 52l-57 -19l-37 -113z" />
    <glyph glyph-name="uniF12E" unicode="&#xf12e;" 
d="M256 448c141 0 256 -115 256 -256s-115 -256 -256 -256s-256 115 -256 256s115 256 256 256zM493 196c-1 39 -10 77 -28 109l-24 -69zM453 325c-26 38 -63 69 -107 87l-79 -55v-63l95 -70l62 20zM349 211l-93 68l-93 -68l35 -110h116zM256 429c-20 0 -40 -2 -59 -7
l62 -47l65 44c-22 6 -44 10 -68 10zM175 415c-39 -14 -72 -38 -98 -68l19 -99l55 -23l97 71v63v0zM61 328c-23 -33 -37 -73 -41 -116l57 32zM19 190c0 -45 13 -86 35 -122l86 -10l41 36l-37 114l-53 22zM68 48c21 -27 46 -49 76 -65l-12 57zM256 -45c23 0 44 3 65 9l25 73
l-31 45h-119l-45 -39l14 -70c28 -12 59 -18 91 -18zM344 -29c31 12 59 31 82 55l-63 1zM442 45c28 36 47 80 51 128l-68 52l-57 -19l-37 -113l32 -47z" />
    <glyph glyph-name="uniF12F" unicode="&#xf12f;" horiz-adv-x="459" 
d="M239 395c122 -5 220 -107 220 -230c0 -126 -104 -229 -230 -229s-229 103 -229 229c0 123 98 225 220 230v34h-26v19h73v-19h-28v-34zM229 -45c116 0 211 94 211 210s-95 211 -211 211s-210 -95 -210 -211s94 -210 210 -210zM256 201l116 61l-99 -86c1 -3 1 -7 1 -11
c0 -25 -20 -44 -45 -44s-44 19 -44 44s19 45 44 45c10 0 19 -3 27 -9zM229 140c14 0 26 11 26 25s-12 26 -26 26s-25 -12 -25 -26s11 -25 25 -25zM43 362c0 13 6 19 19 19s19 -6 19 -19s-6 -19 -19 -19s-19 6 -19 19z" />
    <glyph glyph-name="uniF130" unicode="&#xf130;" 
d="M256 448c141 0 256 -115 256 -256s-115 -256 -256 -256s-256 115 -256 256s115 256 256 256zM256 429c-65 0 -123 -25 -166 -67c37 -51 98 -86 166 -86s129 35 166 86c-43 42 -102 67 -166 67zM256 -45c65 0 123 26 166 68c-37 52 -98 85 -166 85s-129 -33 -166 -85
c43 -42 101 -68 166 -68zM435 36c36 42 58 97 58 156c0 60 -22 114 -58 156c-41 -55 -106 -90 -179 -90s-138 35 -179 90c-36 -42 -58 -96 -58 -156c0 -59 22 -114 58 -156c41 55 106 90 179 90s138 -35 179 -90z" />
    <glyph glyph-name="uniF131" unicode="&#xf131;" 
d="M465 448c26 0 47 -21 47 -47v-271c0 -26 -21 -47 -47 -47h-418c-26 0 -47 21 -47 47v271c0 26 21 47 47 47h418zM266 369v-96h93v96h-93zM266 255v-96h93v96h-93zM19 369v-210h116v210h-116zM248 102v38h-229v-10c0 -15 13 -28 28 -28h201zM248 159v96h-95v-96h95z
M248 273v96h-95v-96h95zM248 388v41h-201c-15 0 -28 -13 -28 -28v-13h229zM493 130v10h-227v-38h199c15 0 28 13 28 28zM493 159v210h-116v-210h116zM493 388v13c0 15 -13 28 -28 28h-199v-41h227z" />
    <glyph glyph-name="uniF132" unicode="&#xf132;" horiz-adv-x="506" 
d="M475 417c54 -54 37 -158 -38 -233c-39 -39 -87 -64 -131 -69l-142 -31c2 -4 2 -7 2 -11c0 -8 -2 -15 -8 -21l-108 -107c-6 -6 -12 -9 -20 -9s-15 3 -21 9c-12 12 -12 30 0 42l107 107c8 8 21 10 32 6l26 147c5 44 28 92 68 132c45 45 102 69 151 69c32 0 61 -10 82 -31z
M144 66c2 2 3 4 3 7s-1 5 -3 7s-4 3 -7 3s-5 -1 -7 -3l-108 -107c-4 -4 -4 -11 0 -15s11 -4 15 0zM169 105l74 16c-15 5 -28 14 -39 25c-10 10 -17 20 -22 33zM423 197c67 67 84 160 38 206c-17 17 -40 26 -68 26c-46 0 -97 -24 -137 -64c-33 -33 -55 -74 -62 -114v-1v0
l-1 -6c-4 -34 5 -65 25 -85c17 -17 40 -25 68 -25c5 0 11 0 17 1l25 5v0c33 9 67 29 95 57z" />
    <glyph glyph-name="uniF133" unicode="&#xf133;" horiz-adv-x="511" 
d="M510 411c3 -5 6 -8 -41 -121c-21 -47 -51 -65 -72 -71c-7 -2 -14 -3 -20 -3l-5 -30c0 -26 -21 -47 -47 -47h-38v-77h10c29 0 53 -22 55 -51h44v-75h-279v75h42c2 29 26 51 55 51h9v77h-40c-26 0 -47 21 -47 47l-5 30c-25 3 -62 17 -88 74c-47 113 -45 116 -42 121l3 4h5
h87l-5 33h326l-5 -33h95zM60 297c21 -45 49 -59 68 -62l-28 162h-79c4 -12 14 -40 39 -100zM293 280l64 45h-78l-23 74l-24 -74h-78l64 -45l-25 -74l63 47l62 -47zM452 298c25 60 34 87 38 99h-82l-28 -162c20 3 50 15 72 63z" />
    <glyph glyph-name="uniF134" unicode="&#xf134;" horiz-adv-x="511" 
d="M510 411c3 -5 5 -8 -41 -121c-21 -47 -51 -65 -72 -71c-7 -2 -14 -3 -20 -3l-5 -30c0 -26 -21 -47 -47 -47h-38v-77h10c29 0 53 -22 55 -51h44v-75h-279v75h41c2 29 27 51 56 51h9v77h-40c-26 0 -47 21 -47 47l-5 30c-25 3 -62 17 -88 74c-47 113 -45 116 -42 121l3 4h5
h87l-5 33h326l-5 -33h95zM60 297c21 -45 49 -59 68 -62l-29 162h-78c4 -12 14 -40 39 -100zM378 -8h-242v-37h242v37zM297 43h-83c-19 0 -35 -14 -37 -32h157c-2 18 -18 32 -37 32zM242 62h26v77h-26v-77zM353 189l42 240h-282l41 -240l1 -1v-2c0 -15 13 -28 28 -28h142
c15 0 28 13 28 28v2v1zM451 298c25 60 35 87 39 99h-82l-28 -162c19 2 49 15 71 63zM279 325h78l-64 -45l25 -74l-63 47l-62 -47l25 74l-64 45h78l23 74z" />
    <glyph glyph-name="uniF135" unicode="&#xf135;" 
d="M256 448c141 0 256 -115 256 -256s-115 -256 -256 -256s-256 115 -256 256s115 256 256 256zM443 338c-21 26 -47 48 -77 64c-15 -7 -29 -16 -42 -26c27 -4 74 -13 119 -38zM256 429h-2c-30 -24 -59 -55 -75 -92c-32 -74 -21 -163 -16 -190c21 12 37 23 43 28
c2 20 18 121 81 191c17 19 37 34 58 46c-28 11 -57 17 -89 17zM215 170v0h-1h1zM81 307c-19 -79 8 -164 17 -190c17 6 34 13 48 20c-4 19 -21 121 16 208c14 32 36 59 61 82c-37 -5 -72 -19 -102 -40c-18 -24 -33 -51 -40 -80zM19 192c0 -32 6 -62 17 -90c15 2 30 5 44 9
c-10 29 -37 117 -17 201c3 11 7 22 12 33c-35 -41 -56 -95 -56 -153zM44 84c14 -28 35 -53 59 -73c12 2 24 5 35 9c77 30 132 104 147 125c-31 10 -57 15 -67 16c-15 -11 -88 -66 -174 -77zM208 -40c8 2 15 4 23 7c90 36 150 130 151 131l1 -1c-25 19 -54 32 -80 42
c-10 -15 -70 -101 -159 -136c-7 -3 -15 -5 -22 -7c25 -17 55 -30 86 -36zM256 -45c72 0 136 31 180 82c-10 17 -23 34 -38 47l-2 2c-9 -13 -63 -93 -146 -131h6zM448 53c16 22 28 48 36 75c-18 32 -45 71 -83 95c-57 37 -127 43 -152 44c-15 -38 -22 -73 -24 -89
c29 -4 121 -22 186 -80c15 -13 26 -29 37 -45zM411 239c34 -22 60 -55 79 -85c2 12 3 25 3 38c0 38 -9 75 -25 107c-3 2 -6 5 -9 7c-59 44 -135 52 -154 53l-5 -5c-19 -21 -32 -45 -43 -69c31 -2 97 -9 154 -46z" />
    <glyph glyph-name="uniF136" unicode="&#xf136;" 
d="M512 399l-190 -157c29 -32 47 -75 47 -122c0 -102 -83 -184 -185 -184s-184 82 -184 184c0 78 49 145 118 172v0l112 49v0l7 3l9 -19c2 -5 6 -8 11 -8c2 0 4 0 6 1c3 1 5 4 6 7s1 7 0 10l-8 19l6 3v0l208 91zM350 120c0 56 -27 105 -70 135l15 12c5 -4 10 -8 14 -12
l177 147l-17 23l-184 -80l1 -2c7 -16 0 -35 -16 -42c-4 -2 -9 -3 -13 -3c-12 0 -23 7 -28 19l-2 3l-107 -47v0c-59 -25 -101 -85 -101 -153c0 -91 74 -165 165 -165s166 74 166 165zM72 120c0 -62 50 -112 112 -112v-18c-72 0 -130 58 -130 130v0h18v0z" />
  </font>
</defs>
</svg>
